Home
Api
Website Categories
Contact

Free audio cds holton buggs cash cow

www.cashcowcds.com

quot;Holton and the Cash Cow Cd's were the factor in building a team of thousands of ... Holton Buggs Cash Cow CD's

cashcowcd.homestead.com
640 X 480 300 X 250 200 X 150 150 X 100

How To Turn Your Network Marketing Business Into A Cash Cow by ...

Amazon.com: How To Turn Your Network Marketing Business Into A Cash Cow by Holton Buggs (Audio CD ... Book Depository Books With Free Delivery Worldwide: CreateSpace Indie ...

amazon.com
640 X 480 300 X 250 200 X 150 150 X 100

Holton Buggs: Cash Cow - Disk 3 CD Track Listing at cyList

Holton Buggs: Cash Cow - Disk 3 CD Track Listing Holton Buggs Cash Cow - Disk 3 (2001) YEAR: 2001 This misc cd contains 10 tracks and runs 66min 3sec.

cylist.com
640 X 480 300 X 250 200 X 150 150 X 100

Amazon.com: holton buggs

How To Turn Your Network Marketing Business Into A Cash Cow by Holton Buggs (Audio CD) by 3K ... Eligible for FREE Super Saver Shipping.

amazon.com
640 X 480 300 X 250 200 X 150 150 X 100

(Holton Buggs)** Holton Buggs** Red Carpet 1 | Donald Trump

(Holton Buggs)** Holton Buggs** Red Carpet 1. Related posts: (Holton Buggs)** Holton ... His CAsh Cow Cds are Incredible. By AaronsCorner on Sep 22, 2010. I really admire you man.

donald-trump.net
640 X 480 300 X 250 200 X 150 150 X 100

Holtonbuggs.wordpress.com Site Info - Alexa the Web Information ...

Related Services. Free Website Content ... holton buggs cash cow cd series: 2.56%: 7: trifecta leadership: 2.01%: 8: george chewning

alexa.com
640 X 480 300 X 250 200 X 150 150 X 100

Cash Cow - Download

Cash Cow, free download. Cash Cow: Connect four similar coins.

cash-cow.en.softonic.com
640 X 480 300 X 250 200 X 150 150 X 100

video Holton Buggs and YTB Convention www.43daydirector.com ...

YOU Are Important To Network Marketing Success!! REAL Free Training For ... Keywords: training mlm network marketing ytb holton buggs cash cow cds 43 day director

kewego.com
640 X 480 300 X 250 200 X 150 150 X 100

www.freedb.org

# xmcd CD database file # # Track frame offsets: # 150 # 107972 # 170172 # 182789 ... DTITLE=Holton Buggs / Cash Cow - Disk 1. DYEAR=2001. DGENRE=Speech. TTITLE0=Picture Your Success

freedb.org
640 X 480 300 X 250 200 X 150 150 X 100

www.freedb.org

# xmcd CD database file # # Track frame offsets: # 150 # 116224 # 126242 # 180239 ... DTITLE=Holton Buggs / Cash Cow - Disk 4 DYEAR=2001 DGENRE=Speech TTITLE0=3-Way Calling ...

freedb.org
640 X 480 300 X 250 200 X 150 150 X 100

Holton Buggs YTB-Forbidden Secrets!! - YouTube

... Shared With: Everyone - 27 days ago | holton buggs, ytb, 3kmg, red carpet days, duplication nation, cash cow cds ... just want to thank you for your free info ...

youtube.com
640 X 480 300 X 250 200 X 150 150 X 100

Holton Buggs - Scribd

... Network Marketing business from Holton Buggs by Holton Buggs in cash, Nation, and cow ... www.whereisholtonbuggs.com to receive Free ... His www.cashcowcds.com website has the cd ...

scribd.com
640 X 480 300 X 250 200 X 150 150 X 100

Holton Buggs - Pipl Directory

Holton Buggs Cash Cow CD's ... [ cashcowcd.homestead.com] ... for sharing professional documents, find free documents and upload documents to share. [ holton buggs ...

pipl.com
640 X 480 300 X 250 200 X 150 150 X 100

Cash cow - Wikipedia, the free encyclopedia

In business, a cash cow is a product or a business unit that generates unusually high profit margins: so high that it is responsible for a large amount of a company's ...

en.wikipedia.org
640 X 480 300 X 250 200 X 150 150 X 100

OrGano Gold - Healthy Coffee

... Call featured our very own OrGano Gold VP of Sales, the one and only HOLTON BUGGS (who ... BUY CD HERE 100% of proceeds from the sale of this CD are donated to charity!

evictorynews.com
640 X 480 300 X 250 200 X 150 150 X 100

Is CYBERWIZE a SCAM? THE SECRET REVEALED - Squidoo : Welcome to ...

That's like receiving one FREE for every four that you buy! If you buy ... Holton Buggs - Cash Cow Cds at www.cashcowcds.com Holton Buggs - Cash Cow Cds at www.cashcowcds ...

squidoo.com
640 X 480 300 X 250 200 X 150 150 X 100

Foreign Audio Bugs - www.VisitKotaKinabalu.com | Welcome To The ...

cash cow audio holton buggs gedichte online audio audio design delay dove audio inc ... audio books on mp3 cd free kenny g sentimental audio track audio las medias rojas ...

visitkotakinabalu.com
640 X 480 300 X 250 200 X 150 150 X 100

Home Page [coffeetosuccess.info]

Listen to CASH COW by Holton Buggs Get a copy from your sponsor or OG ... How to Hold a CJM --- Audio; 4. Make an ... Do NOT let them have a FREE Sample without a phone ...

coffeetosuccess.info
640 X 480 300 X 250 200 X 150 150 X 100

Aislee.com | Real Estate Investor Entrepreneur | Master Marketer ...

... John Singleton the director has a cameo as the CD ... with the other big names of Organo Gold, like Holton Buggs ... able to look for properties to turn into their cash cow.

aislee.com
640 X 480 300 X 250 200 X 150 150 X 100

Igloo coolers retail gt; gt; todd coolers

utada hikaru download free. bag coolers. 2007 maxda rx8 oil coolers. stainless ... cash cow audio holton buggs. portable swamp coolers user manual. body coolers neck

cityviewhoa.org
640 X 480 300 X 250 200 X 150 150 X 100

Easy Payday Loan Cash Advances | You Advance America

Provides cash advances online and through centers across the United States.

advanceamerica.net
640 X 480 300 X 250 200 X 150 150 X 100

Abigail Adams by Woody Holton - Reviews, Discussion, Bookclubs, Lists

... were prohibited from owning any land, furniture, or cash. ... I listened to it as an audio book and the reader was ... The book is told over the course of TWENTY CDs, so ...

goodreads.com
640 X 480 300 X 250 200 X 150 150 X 100

Sam Ash Direct | Musical Instruments, Guitars, Amplifiers, Drums ...

Musical instruments and pro audio gear at the guaranteed lowest prices. Guitars, amps ... shop by brand | buyers guides | closeouts | free info

samash.com
640 X 480 300 X 250 200 X 150 150 X 100

Johnny Horton - Wikipedia, the free encyclopedia

Now he was free to travel, and he started earning as much ... myself in one of the hotel's barrooms, and cried. quot; Cash ... Johnny Horton 1956-1960 - Vol 3 / 13 - O'Leary's Cow

en.wikipedia.org
640 X 480 300 X 250 200 X 150 150 X 100

Website Meta Keywords