Free Audio Cds Holton Buggs Cash Cow

Advertising

quot;Holton and the Cash Cow Cd's were the factor in building a team of thousands of ... Holton Buggs Cash Cow CD's

Amazon.com: How To Turn Your Network Marketing Business Into A Cash Cow by Holton Buggs (Audio CD ... Book Depository Books With Free Delivery Worldwide: CreateSpace Indie ...

Holton Buggs: Cash Cow - Disk 3 CD Track Listing Holton Buggs Cash Cow - Disk 3 (2001) YEAR: 2001 This misc cd contains 10 tracks and runs 66min 3sec.

How To Turn Your Network Marketing Business Into A Cash Cow by Holton Buggs (Audio CD) by 3K ... Eligible for FREE Super Saver Shipping.

(Holton Buggs)** Holton Buggs** Red Carpet 1. Related posts: (Holton Buggs)** Holton ... His CAsh Cow Cds are Incredible. By AaronsCorner on Sep 22, 2010. I really admire you man.

Related Services. Free Website Content ... holton buggs cash cow cd series: 2.56%: 7: trifecta leadership: 2.01%: 8: george chewning

Advertising

Cash Cow, free download. Cash Cow: Connect four similar coins.

YOU Are Important To Network Marketing Success!! REAL Free Training For ... Keywords: training mlm network marketing ytb holton buggs cash cow cds 43 day director

# xmcd CD database file # # Track frame offsets: # 150 # 107972 # 170172 # 182789 ... DTITLE=Holton Buggs / Cash Cow - Disk 1. DYEAR=2001. DGENRE=Speech. TTITLE0=Picture Your Success

# xmcd CD database file # # Track frame offsets: # 150 # 116224 # 126242 # 180239 ... DTITLE=Holton Buggs / Cash Cow - Disk 4 DYEAR=2001 DGENRE=Speech TTITLE0=3-Way Calling ...

... Shared With: Everyone - 27 days ago | holton buggs, ytb, 3kmg, red carpet days, duplication nation, cash cow cds ... just want to thank you for your free info ...

... Network Marketing business from Holton Buggs by Holton Buggs in cash, Nation, and cow ... www.whereisholtonbuggs.com to receive Free ... His www.cashcowcds.com website has the cd ...

Holton Buggs Cash Cow CD's ... [ cashcowcd.homestead.com] ... for sharing professional documents, find free documents and upload documents to share. [ holton buggs ...

In business, a cash cow is a product or a business unit that generates unusually high profit margins: so high that it is responsible for a large amount of a company's ...

... Call featured our very own OrGano Gold VP of Sales, the one and only HOLTON BUGGS (who ... BUY CD HERE 100% of proceeds from the sale of this CD are donated to charity!

That's like receiving one FREE for every four that you buy! If you buy ... Holton Buggs - Cash Cow Cds at www.cashcowcds.com Holton Buggs - Cash Cow Cds at www.cashcowcds ...

cash cow audio holton buggs gedichte online audio audio design delay dove audio inc ... audio books on mp3 cd free kenny g sentimental audio track audio las medias rojas ...

Listen to CASH COW by Holton Buggs Get a copy from your sponsor or OG ... How to Hold a CJM --- Audio; 4. Make an ... Do NOT let them have a FREE Sample without a phone ...