Login Sign Up Galleries Home

Holton buggs cash cow

cylist.com

Holton Buggs: Cash Cow - .

Holton Buggs: Cash Cow - Disk 3 CD Track Listing Holton Buggs Cash Cow - Disk 3 (2001) YEAR: 2001 This misc cd contains 10 tracks and runs 66min 3sec.

facebook.com

HOLTON BUGGS- CASH COW | .

To interact with HOLTON BUGGS- CASH COW you need to sign up for Facebook first.

kewego.com

video Holton Buggs and YT.

YOU Are Important To Network Marketing Success!! REAL Free Training For ... Keywords: training mlm network marketing ytb holton buggs cash cow cds 43 day director

youtube.com

OrGano Gold Training quo.

OrGano Gold Training quot;3 Way Call and Edification quot; Holton Buggs Cash Cow / OG ... all made possible through the leadership and Mentorship of Mr. Holton Buggs.

organo-gold-coffee.recipes1.net

Holton Buggs Organo Gold .

Organo Gold Training 3 Way Call And Edification Holton Buggs Cash Cow Og University Style. Iambrettshoemaker.com cell 832 876 1577 ganodermacoffeebusiness.com http ...

donald-trump.net

(Holton Buggs)** Holton B.

(Holton Buggs)** Holton Buggs** Red Carpet 1. Related posts: (Holton Buggs)** Holton ... His CAsh Cow Cds are Incredible. By AaronsCorner on Sep 22, 2010. I really admire you man.

freedb.org

www.freedb.org

# xmcd CD database file # # Track frame offsets: # 150 # 107972 # 170172 # 182789 ... DTITLE=Holton Buggs / Cash Cow - Disk 1. DYEAR=2001. DGENRE=Speech. TTITLE0=Picture Your Success

wirefan.com

Account Suspended

file under: holton buggs, cash cow, duplication nation, network marketing by HoltonBuggs 2008/05/08 13:51:03

amazon.com

Amazon.com: holton buggs

How To Turn Your Network Marketing Business Into A Cash Cow by Holton Buggs (Audio CD) by 3K Marketing Group

scribd.com

Holton Buggs - Scribd

... and successful Network Marketing business from Holton Buggs by Holton Buggs in cash, Nation, and cow ... Download or Print

Copyright © AllWebGallery. All rights reserved.