Home
Api
Website Categories
Contact

Holton buggs cash cow

Holton Buggs: Cash Cow - Disk 3 CD Track Listing at cyList

Holton Buggs: Cash Cow - Disk 3 CD Track Listing Holton Buggs Cash Cow - Disk 3 (2001) YEAR: 2001 This misc cd contains 10 tracks and runs 66min 3sec.

cylist.com
640 X 480 300 X 250 200 X 150 150 X 100

video Holton Buggs and YTB Convention www.43daydirector.com ...

YOU Are Important To Network Marketing Success!! REAL Free Training For ... Keywords: training mlm network marketing ytb holton buggs cash cow cds 43 day director

kewego.com
640 X 480 300 X 250 200 X 150 150 X 100

(Holton Buggs)** Holton Buggs** Red Carpet 1 | Donald Trump

(Holton Buggs)** Holton Buggs** Red Carpet 1. Related posts: (Holton Buggs)** Holton ... His CAsh Cow Cds are Incredible. By AaronsCorner on Sep 22, 2010. I really admire you man.

donald-trump.net
640 X 480 300 X 250 200 X 150 150 X 100

www.freedb.org

# xmcd CD database file # # Track frame offsets: # 150 # 107972 # 170172 # 182789 ... DTITLE=Holton Buggs / Cash Cow - Disk 1. DYEAR=2001. DGENRE=Speech. TTITLE0=Picture Your Success

freedb.org
640 X 480 300 X 250 200 X 150 150 X 100

Cash Cow by Holton Buggs | Facebook

To interact with Cash Cow by Holton Buggs you need to sign up for Facebook first.

facebook.com
640 X 480 300 X 250 200 X 150 150 X 100

Amazon.com: holton buggs

How To Turn Your Network Marketing Business Into A Cash Cow by Holton Buggs (Audio CD) by 3K Marketing Group

amazon.com
640 X 480 300 X 250 200 X 150 150 X 100

(Holton Buggs)**Holton Buggs** Red Carpet 3 - YouTube

Ninety Day Blitz - Apr 25Labels: 3kmg, cash cow cds, holton buggs, mlm, network marketing, YTB ... They were only used by Holton Buggs team until now. ...

youtube.com
640 X 480 300 X 250 200 X 150 150 X 100

Holton Buggs - Scribd

... and successful Network Marketing business from Holton Buggs by Holton Buggs in cash, Nation, and cow ... Download or Print

scribd.com
640 X 480 300 X 250 200 X 150 150 X 100

Cash cow business - See your portfolio in a whole new light ...

A Cash cow is a business (usually used when refering to a SBU - Strategic Business Unit of a larger corporation) that produces consistent cash flow over its lifespan.

wikinvest.com
640 X 480 300 X 250 200 X 150 150 X 100

Website Meta Keywords